Bellfort GVR503 Full HD Robox

Новая модель GPS навигатор с встроенным видеорегистратором и камерой заднего вида GVR507 Triton FHD 

(на смену GVR503 Full HD Robox)

GPS навигатор с встроенным видеорегистратором и камерой заднего вида GVR507_Triton_FHD

 

 

 

 Автомобильный GPS навигатор с  видеорегистратором Full HD и камерой заднего вида — Bellfort GVR503 Full HD Robox .

 Технические  характеристики и описание GPS навигатора с видеорегистратором Full HD

 Bellfort GVR503 Full HD Robox

 Преимущества: 

  • Full HD* съемка встроенного видеорегистратора (1920*1080)     * впервые в Украине
  • 2 записывающие камеры
  • Процессор 1 GHz
  • WI-FI
  • Емкий аккумулятор
  • Операционная система Android 4.0

Возможности:

  • Съемка видео на основную и дополнительную камеру
  • Одновременная работа видеорегистратора и GPS навигации
  • Установка приложений через интернет
  • Zoom во время видео- и фото- съемки

 

 

 

GPS навигатор премиум сегмента Bellfort GVR503 Full HD Robox работает на операционной системе Android 4.0 и оборудован встроенным видеорегистратором Full HD качества. Мощный процессор тактовой частотой 1 GHz обеспечивает бесперебойную работу видеорегистратора и GPS навигации одновременно. Съемка видео GVR503 Robox отличается от съемки недорогих Full HD видеорегистраторов прежде всего стабильностью кадра и плавностью съемки. Качество матрицы и хорошая оптика позволяют производить съемку в условиях недостаточной освещенности  с минимальным количеством цифрового шума. Возможность выбора качества видео позволяет осуществить переход с одного режима в другой одной кнопкой.

Также одним нажатием осуществляется переключение с основной видеокамеры на дополнительную и обратно. Дополнительная камера заднего вида обладает повышенной светочувствительностью, что позволяет производить съемку в ночное время.

Bellfort GVR503 Full HD Robox оборудован функцией PIP (pic in pic). Другими словами, во время навигации вы можете контролировать съемку с помощью небольшого окна выводимого на экран навигатора. Высокочувствительный резистивный экран (touchscreen) позволяет управлять элементами не только нажатием, но и касательными движениями.

Операционная система Android 4.0 и мощный процессор превращают Bellfort GVR503 Full HD Robox в полноценный планшет. Все приложения для планшетов устанавливаются и в  GVR503 Robox. С помощью встроенного модуля WI-FI осуществляется быстрое и легкое подключение к интернет. Также можно подключиться к интернет с помощью модуля Bluetooth. Емкий аккумулятор позволит использовать навигатор как фотоаппарат, либо видеокамеру в течение длительного времени без внешнего питания.

Устройство разработано и предназначено прежде всего для автолюбителей с большими требованиями к качеству видео и широким возможностям навигатора.


Комплектация

  • GPS навигатор с видеорегистратором Bellfort GVR503 Full HD Robox
  • Дополнительная камера 
  • Автомобильное зарядное устройство  — 1 шт.
  • USB кабель для подключения к компьютеру
  • Инструкция по эксплуатации
  • Гарантийный талон
Гарантия 12 месяцев
гарантия не распространяется на зарядное устройство для автомобиля, штатив для крепления в салоне автомобиля.

Элемент/наименование

Модель / Технические характеристики

Название/модель продукта
 Bellfort GVR503 Full HD Robox
Число пикселей
 1080P
Светочувствительный элемент
 COMS чип
Угол обзора
 120 градусов
Частота процессора  1,0 GHz
Разрешение динамической съемки
 1920*1080
Разрешение изображения
 1920*1080
Встроенная память
 4 Gb
 Доп.функции  WI-FI
Разрешение съемки дополнительной камеры
 640х480
Режимы разрешения видеосъемки основной камеры
 1080P, 720P, 480P
Цифровой зум
 есть
Баланс белого
 Ручной + Автоматический
Режим Фото
 есть
Управление экспозицией
 Ручной + Автоматически
Размер экрана, дюймы
 5.0
Размер экрана, пиксели
 800×480
   
Микрофон
 —38DB
TF карта
 Поддержка  внешней  TF  карты памяти до 32 Гб
   
Напряжение питания
 DC5V
Рабочий ток
 
Емкость аккумулятора
 1200MAH
Ток зарядки
 

Видео GVR503 Full HD Robox (зима, утро)

*при просмотре не забудьте изменить качество видео на 1080P

Видео GVR503 Full HD Robox (зима, вечер)

*при просмотре не забудьте изменить качество видео на 1080P

Видео (Киев, Бессарабка — Крещатик, утро, зима)

*при просмотре не забудьте изменить качество видео на 1080P

Технические характеристики представленного видео:

Расположение: K:\PHOTO_~2\BE5293~1\VIDEO5~1.02-\VID23D~1.MP4
Имя файла: VID23D~1.MP4
Формат файла: .MP4 (MPEG-4)
Размер файла: 98.34 MB
Длительность: 3mn 0s
Навигация по главам: Нет
Bitrate (все потоки): 4 561 Kbps
Тип битрейта (все потоки): Variable

Название: VID23D~1

Тип потока: Видео
Длительность: 00:03:00
Кодек: AVC
Кодек/Профиль: Baseline@L3.1
Кодек/ID: avc1
Размеры изображения: 1920 x 1080 (16:9)
Размер потока: 96.7 MiB (98%)
Битрейт: 4 485 Kbps

Тип потока: Звук #1
Длительность: 00:03:00.870
Кодек: AAC
Кодек/ID: 40
Частота дискретизации: 44.1 KHz
Каналов: 1 channel
Битрейт: 64.8 Kbps
Размер потока: 1.40 MiB (1%)
Метод сжатия: Lossy
Язык: Russian

Видео обзор Автомобильный GPS навигатор с видеорегистратором Full HD и камерой заднего вида — Bellfort GVR503 Full HD Robox часть.1

Видео обзор Автомобильный GPS навигатор с видеорегистратором Full HD и камерой заднего вида — Bellfort GVR503 Full HD Robox часть.2